1. ahmed waddey's Avatar
    The following is the video that i tested on the new Snapdragon 800 powered SONY Z ULTRA smartphone I used VLC for android . And it showed about 1 second delay when playing from any point .Will bring a screenshot soon.

    The video played is about bitrate of 4934 Kbps , that is about roughly 4.5 Mbps?
    I tried playing the Nokia 808 2K video




    General

    Unique ID : 229206581182463104941251952813989660253 (0xAC6F94F1D3CF18F3BF499592F497865D)
    Complete name : C:\Users\asaa\Desktop\BBC-HD.Oceans.E03.Red.Sea.2008.720p.AC3.5.1.HDBRiSe.mkv
    Format : Matroska
    Format version : Version 1
    File size : 2.19 GiB
    Duration : 58mn 50s
    Overall bit rate : 5 321 Kbps
    Movie name : Encoded_by_HDBRiSe_for_HD-BiTs.ro
    Encoded date : UTC 2009-02-13 21:55:42
    Writing application : mkvmerge v2.1.0 ('Another Place To Fall') built on Aug 19 2007 13:45:34
    Writing library : libebml v0.7.7 + libmatroska v0.8.1


    Video

    ID : 1
    Format : AVC
    Format/Info : Advanced Video Codec
    Format profile : High@L4.1
    Format settings, CABAC : Yes
    Format settings, ReFrames : 4 frames
    Codec ID : V_MPEG4/ISO/AVC
    Duration : 58mn 50s
    Bit rate : 4 934 Kbps
    Width : 1 280 pixels
    Height : 720 pixels
    Display aspect ratio : 16:9
    Frame rate mode : Constant
    Frame rate : 25.000 fps
    Color space : YUV
    Chroma subsampling : 4:2:0
    Bit depth : 8 bits
    Scan type : Progressive
    Bits/(Pixel*Frame) : 0.214
    Stream size : 1.99 GiB (91%)
    Title : BBC-HD.Oceans.E03.Red.Sea.2008.720p.HDBRiSe
    Writing library : x264 core 66 r1093M 1df50b9
    Encoding settings : cabac=1 / ref=4 / deblock=1:-3:-3 / analyse=0x3:0x113 / me=umh / subme=7 / psy_rd=1.0:0.0 / mixed_ref=1 / me_range=16 / chroma_me=1 / trellis=1 / 8x8dct=1 / cqm=0 / deadzone=21,11 / chroma_qp_offset=-2 / threads=3 / nr=0 / decimate=1 / mbaff=0 / bframes=3 / b_pyramid=1 / b_adapt=1 / b_bias=0 / direct=3 / wpredb=1 / keyint=250 / keyint_min=25 / scenecut=40(pre) / rc=2pass / bitrate=4934 / ratetol=1.0 / qcomp=0.60 / qpmin=10 / qpmax=51 / qpstep=4 / cplxblur=20.0 / qblur=0.5 / ip_ratio=1.40 / pb_ratio=1.30 / aq=1:1.00
    Default : Yes
    Forced : No


    Audio

    ID : 2
    Format : AC-3
    Format/Info : Audio Coding 3
    Mode extension : CM (complete main)
    Format settings, Endianness : Big
    Codec ID : A_AC3
    Duration : 58mn 50s
    Bit rate mode : Constant
    Bit rate : 384 Kbps
    Channel(s) : 6 channels
    Channel positions : Front: L C R, Side: L R, LFE
    Sampling rate : 48.0 KHz
    Bit depth : 16 bits
    Compression mode : Lossy
    Stream size : 162 MiB (7%)
    Title : BBC-HD.Oceans.E03.Red.Sea.2008.AC3.5.1.HDBRiSe
    Language : English
    Default : Yes
    Forced : No
    08-13-2013 03:34 PM

Similar Threads

  1. Snapdragon 800
    By TechJunkie#AC in forum Verizon HTC One
    Replies: 6
    Last Post: 08-17-2013, 05:01 PM
  2. rooting s4 on verizon
    By jhnybgood47 in forum Samsung Galaxy S4
    Replies: 12
    Last Post: 08-14-2013, 07:12 AM
  3. Ipad 1 has not cast button on youtube
    By jabroney12 in forum Google Chromecast
    Replies: 5
    Last Post: 08-13-2013, 07:11 PM
  4. What is the best Rom to use on the verizon Galaxy s3?
    By junowatitis15 in forum Verizon Galaxy S III Rooting, ROM's, and Hack's
    Replies: 5
    Last Post: 08-13-2013, 07:01 PM
  5. MSL Code for mini on Sprint
    By Andr0idFanB0y in forum Samsung Galaxy S4 Mini
    Replies: 0
    Last Post: 08-13-2013, 03:06 PM
LINK TO POST COPIED TO CLIPBOARD